当前位置:网站首页 > 媒体 > 正文

[惊悚] 致命弯道/致命弯道7 Wrong.Turn.2021.1080p.BluRay.x264.DTS-HD.MA.5.1-MT.中英字幕

作者:观棋日期:2021-02-18浏览:208分类:媒体


◎译  名 致命弯道/致命弯道7/致命弯道重启版
◎片  名 Wrong Turn
◎年  代 2021
◎产  地 德国
◎类  别 惊悚 / 恐怖
◎语  言 英语
◎上映日期 2021-01-26(美国)
◎IMDb评分  5.7/10 from 1570 users
◎IMDb链接  https://www.imdb.com/title/tt9110170/
◎豆瓣评分 6.4/10 from 122 users
◎豆瓣链接 https://movie.douban.com/subject/30352897/
◎片  长 110分钟
◎导  演 迈克·P·纳尔逊 Mike P. Nelson
◎编  剧 阿兰·B·麦克埃尔罗伊 Alan B. McElroy
◎主  演 夏洛特·维嘉 Charlotte Vega
       艾玛·杜蒙特 Emma Dumont
       马修·莫迪恩 Matthew Modine
       黛茜·海德 Daisy Head
       比尔·萨奇 Bill Sage
       达米安·马菲 Damian Maffei
       迪伦·麦蒂 Dylan McTee
       科里·斯科特·艾伦 Cory Scott Allen
       阿德里安·法维拉 Adrian Favela
       大卫·哈奇森 David Hutchison

◎标  签 恐怖 | *恐怖 | 2021 | 美国电影 | 翻拍 | #系列 | 丧尸 | !电影

◎简  介


  一群亲密的好朋友决定前往西弗吉尼亚州徒步旅行,却意外遇到在对陌生人不友好的部落,这是一个已经在山里居住了数百年的部落。面对好朋友相继遇难,女主角利用自己的勇敢和智慧保护自己,最终虎口脱险的故事。


Video
ID                                       : 1
Format                                   : AVC
Format/Info                              : Advanced Video Codec
Format profile                           : [email protected]
Format settings                          : CABAC / 5 Ref Frames
Format settings, CABAC                   : Yes
Format settings, Reference frames        : 5 frames
Codec ID                                 : V_MPEG4/ISO/AVC
Duration                                 : 1 h 50 min
Bit rate                                 : 21.9 Mb/s
Width                                    : 1 920 pixels
Height                                   : 808 pixels
Display aspect ratio                     : 2.40:1
Frame rate mode                          : Constant
Frame rate                               : 23.976 (24000/1001/189150) FPS
Color space                              : YUV
Chroma subsampling                       : 4:2:0
Bit depth                                : 8 bits
Scan type                                : Progressive
Bits/(Pixel*Frame)                       : 0.590
Stream size                              : 16.9 GiB (87%)
Writing library                          :
x264 core 157 r2938 2b00a84 [email protected] Mod
Encoding settings                        : cabac=1 / ref=5 / deblock=1:-3:-3 / analyse=0x3:0x133 / me=umh / subme=10 / psy=1 / psy_rd=1.05:0.00 / mixed_ref=1 / me_range=32 / chroma_me=1 / trellis=2 / 8x8dct=1 / cqm=0 / deadzone=21,11 / fast_pskip=0 / chroma_qp_offset=-2 / threads=12 / lookahead_threads=2 / sliced_threads=0 / nr=0 / decimate=0 / interlaced=0 / bluray_compat=0 / constrained_intra=0 / bframes=8 / b_pyramid=2 / b_adapt=2 / b_bias=0 / direct=3 / weightb=1 / open_gop=0 / weightp=2 / keyint=250 / keyint_min=24 / scenecut=40 / intra_refresh=0 / rc_lookahead=250 / rc=crf / mbtree=0 / crf=16.8 / qcomp=0.60 / qpmin=0 / qpmax=69 / qpstep=4 / vbv_maxrate=62500 / vbv_bufsize=78125 / crf_max=0.0 / nal_hrd=none / filler=0 / ip_ratio=1.30 / pb_ratio=1.20 / aq=3:0.80
Language                                 : English
Default                                  : Yes
Forced                                   : No
Color range                              : Limited
Color primaries                          : BT.709
Matrix coefficients                      : BT.709

Audio
ID                                       : 2
Format                                   : DTS XLL
Format/Info                              : Digital Theater Systems
Commercial name                          : DTS-HD Master Audio
Codec ID                                 : A_DTS
Duration                                 : 1 h 50 min
Bit rate mode                            : Variable
Bit rate                                 : 3 396 kb/s
Channel(s)                               : 6 channels
Channel layout                           : C L R Ls Rs LFE
Sampling rate                            : 48.0 kHz
Frame rate                               : 93.750 FPS (512 SPF)
Bit depth                                : 24 bits
Compression mode                         : Lossless
Stream size                              : 2.61 GiB (13%)
Language                                 : English
Default                                  : Yes
Forced                                   : No

Text #1
ID                                       : 3
Format                                   : UTF-8
Codec ID                                 : S_TEXT/UTF8
Codec ID/Info                            : UTF-8 Plain Text
Duration                                 : 1 h 46 min
Bit rate                                 : 44 b/s
Count of elements                        : 1296
Stream size                              : 34.9 KiB (0%)
Language                                 : English
Default                                  : Yes
Forced                                   : No

Text #2
ID                                       : 4
Format                                   : PGS
Muxing mode                              : zlib
Codec ID                                 : S_HDMV/PGS
Codec ID/Info                            : Picture based subtitle format used on BDs/HD-DVDs
Duration                                 : 1 h 47 min
Bit rate                                 : 32.6 kb/s
Count of elements                        : 3024
Stream size                              : 25.1 MiB (0%)
Language                                 : English
Default                                  : No
Forced                                   : No

Menu
00:00:00.000                             : en:Chapter 01
00:05:22.364                             : en:Chapter 02
00:14:39.170                             : en:Chapter 03
00:20:43.826                             : en:Chapter 04
00:25:05.129                             : en:Chapter 05
00:32:36.538                             : en:Chapter 06
00:39:30.952                             : en:Chapter 07
00:44:12.859                             : en:Chapter 08
00:48:35.329                             : en:Chapter 09
00:58:29.381                             : en:Chapter 10
01:06:07.172                             : en:Chapter 11
01:14:34.970                             : en:Chapter 12
01:22:48.130                             : en:Chapter 13
01:29:33.535                             : en:Chapter 14
01:38:13.346                             : en:Chapter 15
01:43:54.061                             : en:Chapter 16


下载地址:

飞猫云:http://file.fmapp.com/s/2o2k9j0e

567盘:https://www.gueizu.com/file-998783.html

无广告/干净云/直链/BT下载:

VIP访问内容

需开通青铜VIP及以上VIP等级才能访问此内容

铂金永久VIP会员畅享全站资源无限制下载!

升级会员前请大家看清楚自己所需资源的对应会员权限!月费VIP,年费VIP跟永久VIP是三个不同的权限等级!想好了再开,本站不再跟啥提示也不看就莽进来的人扯淡!付费后权限没到位的可以复制支付流水到后台提交工单处理!

友情小提示:

本站所有内容均由互联网收集整理、网友分享,我们不承担任何技术、责任及版权问题,资源测速后请24小时后删除!若您需要请您购买正版授权并合法使用,我们不对任何资源负法律责任。

资源失效请留言站长,压缩文件请在电脑上用最新版的好压或者360压缩软件解压,请勿在线解压,手机解压失败的勿扰。

网赚盘链接失效不补,要稳定请移步干净云或BT,BT比较推荐用115下载,也可用uTorrent或BitComet下载。


暂无评论,来添加一个吧。

您需要 登录账户 后才能发表评论

取消回复欢迎 发表评论:

请填写验证码
请先 登录 再评论,若不是会员请先 注册